Banda Ancha EU

Comunidad de usuarios
de fibra, móvil y ADSL

hosting en interdominios
423 lecturas y 5 respuestas
  • Imagen en HD congelada con el VLC de portatil

    Hola,

    estoy intentando ver una pelicula en formato .mkv en el vlc del portatil pero no sé que pasa que se queda la imagen congelada y va a saltos aunque el sonido va bien ¿que puede estar pasando?

    aqui os dejo la informacion del ripeo :

    Format : Matroska
    File size : 9.05 GiB
    Duration : 1h 44mn
    Overall bit rate : 12.4 Mbps
    Encoded date : UTC 2009-04-24 11:36:49
    Writing application : mkvmerge v2.7.0 ('Do It Again') built on Apr 14 2009 22:35:54
    Writing library : libebml v0.7.7 + libmatroska v0.8.1
    Cover : Yes / Yes / Yes

    Video
    ID : 1
    Format : AVC
    Format/Info : Advanced Video Codec
    Format profile : High@L4.1
    Format settings, CABAC : Yes
    Format settings, ReFrames : 5 frames
    Muxing mode : Container profile=Unknown@4.1
    Codec ID : V_MPEG4/ISO/AVC
    Duration : 1h 44mn
    Bit rate : 10.2 Mbps
    Nominal bit rate : 10.5 Mbps
    Width : 1 920 pixels
    Height : 800 pixels
    Display aspect ratio : 2.400
    Frame rate : 23.976 fps
    Resolution : 24 bits
    Colorimetry : 4:2:0
    Scan type : Progressive
    Bits/(Pixel*Frame) : 0.276
    Stream size : 7.42 GiB (82%)
    Writing library : x264 core 67 r1139M 1024283
    Encoding settings : cabac=1 / ref=5 / deblock=1:-3:-3 / analyse=0x3:0x133 / me=umh / subme=9 / psy_rd=1.4:0.0 / mixed_ref=1 / me_range=36 / chroma_me=1 / trellis=2 / 8x8dct=1 / cqm=0 / deadzone=21,11 / chroma_qp_offset=-2 / threads=6 / nr=0 / decimate=0 / mbaff=0 / bframes=6 / b_pyramid=0 / b_adapt=2 / b_bias=0 / direct=1 / wpredb=1 / keyint=250 / keyint_min=25 / scenecut=40 / rc=2pass / bitrate=10457 / ratetol=1.0 / qcomp=0.60 / qpmin=10 / qpmax=51 / qpstep=4 / cplxblur=20.0 / qblur=0.5 / ip_ratio=1.40 / pb_ratio=1.30 / aq=1:1.00

    Audio #1
    ID : 2
    Format : AC-3
    Format/Info : Audio Coding 3
    Codec ID : A_AC3
    Duration : 1h 44mn
    Bit rate mode : Constant
    Bit rate : 448 Kbps
    Channel(s) : 6 channels
    Channel positions : Front: L C R, Surround: L R, LFE
    Sampling rate : 48.0 KHz
    Stream size : 335 MiB (4%)
    Language : Spanish

    Audio #2
    ID : 3
    Format : DTS
    Format/Info : Digital Theater Systems
    Codec ID : A_DTS
    Duration : 1h 44mn
    Bit rate mode : Constant
    Bit rate : 1 536 Kbps
    Channel(s) : 6 channels
    Channel positions : Front: L C R, Surround: L R, LFE
    Sampling rate : 48.0 KHz
    Resolution : 24 bits
    Stream size : 1.12 GiB (12%)
    Language : English

    Este tema lleva más de 6 meses inactivo. Es recomendable que abras un nuevo tema para retomar la conversación.